#TITLE:Two-Faced Lovers;
#SUBTITLE:;
#ARTIST:Hatsune Miku;
#TITLETRANSLIT:;
#SUBTITLETRANSLIT:;
#ARTISTTRANSLIT:;
#CREDIT:;
#BANNER:Hatsune Miku - Two-Faced Lovers-banner.jpg;
#BACKGROUND:Hatsune Miku - Two-Faced Lovers-bg.jpg;
#LYRICSPATH:Hatsune Miku - Two-Faced Lovers.lrc;
#CDTITLE:CDTitle.png;
#MUSIC:Hatsune Miku - Two-Faced Lovers.ogg;
#OFFSET:0.780;
#SAMPLESTART:79.960;
#SAMPLELENGTH:12.000;
#SELECTABLE:YES;
#BPMS:0.000=79.500,11.000=159.000;
#STOPS:;
#BGCHANGES:;
// cache tags:
#FIRSTBEAT:5.000;
#LASTBEAT:269.000;
#SONGFILENAME:songs/Vocaloid Party/Hatsune Miku - Two-Faced Lovers/Hatsune Miku - Two-Faced Lovers.sm;
#HASMUSIC:1;
#HASBANNER:1;
#MUSICLENGTH:106.535;
// end cache tags

//---------------dance-single - ----------------
#NOTES:
     dance-single:
     :
     Challenge:
     11:
     1.000,0.947,0.404,0.347,1.000,695.000,43.000,37.000,29.000,5.000:
0000
0000
0000
0000
,
0000
0000
0000
0000
2002
0000
0000
0000
0200
0000
0000
0300
3403
0000
M00M
0000
,
M00M
0000
0000
0000
M00M
0000
0000
0000
M00M
0000
0000
0000
0000
0000
0000
0000
0301
0000
1000
0000
0001
1000
0001
1000
0001
0000
0010
0000
0001
0000
0010
0000
,
0100
1000
0100
1000
0100
0000
1000
0000
1100
0000
0000
0000
0001
0100
0001
0100
,
0010
1000
0010
1000
0010
0000
1000
0000
1010
0000
0000
0000
0001
1000
0001
1000
,
0010
0100
0010
0100
0010
0000
0100
0000
0110
0000
0000
0000
0010
0100
0010
0100
,
0001
1000
0001
1000
0001
0000
1001
0000
0002
0000
0000
0000
1003
0100
1000
0100
,
0010
0001
0010
0001
0010
0000
0100
0000
1100
0000
0000
0000
0001
0010
0001
0010
,
0100
1000
0100
1000
0100
0000
0010
0000
0011
0000
0000
0000
1000
0001
1000
0001
,
1000
0010
1000
0010
1000
0000
0001
0000
0101
0000
0000
0000
0001
1000
0001
1000
,
0001
0100
0001
0100
0001
0000
1001
0000
0200
0000
0000
0000
0310
0000
1000
0010
,
1000
0010
0100
0001
0010
0001
0100
0010
1000
0100
0010
0000
0000
0000
0001
0010
,
0100
0010
0001
0100
0010
0000
1000
0000
0001
0000
0100
0000
0010
0000
1000
0100
,
0000
1000
0001
1000
0010
0100
0010
1000
0100
0010
0001
0100
0010
0100
0001
1000
,
0010
0100
0010
1000
0100
0010
0100
0010
0001
0010
0001
0100
0010
0000
1000
0010
,
0000
0100
0001
0100
0010
1000
0001
1000
0010
1000
0100
0000
0000
0000
1100
0000
,
0000
0101
0000
0000
1100
0000
0000
0011
0000
0000
1100
0000
0001
0000
0100
0001
,
0100
0010
0100
0001
1000
0001
0100
0001
0000
1000
0100
0010
0001
0000
1000
0000
,
0010
0100
0001
0010
0100
0010
0001
0100
0010
1000
0100
0000
0010
0000
0001
0000
,
1000
0000
0100
0000
0010
0000
0001
0000
0010
0100
1000
0000
0001
0010
0100
0000
,
1000
0000
0001
0000
1000
0000
0010
0100
0010
0100
0020
0000
0000
0000
0000
0000
,
0000
0000
0000
1030
0001
0100
0020
0000
,
0230
0000
0000
0000
0302
0000
0000
0000
2003
0000
0000
0000
3001
0000
0100
0001
,
0100
0000
0001
1000
0010
0100
0001
1000
0010
0100
0000
0010
0000
0000
1000
0001
,
0100
0001
0010
0001
1000
0000
0001
0000
1000
0000
0001
0000
2000
0000
0000
0000
,
3002
0203
0320
2030
,
0000
0000
3000
0000
0101
0000
0000
0000
1100
0000
0000
0000
1001
0000
0001
0010
,
0100
0010
0100
0010
0200
0000
1000
0000
1000
0000
0000
0000
0310
0000
1000
0100
,
0010
0100
0010
0100
0020
0000
0001
0000
0001
0000
0000
0000
0130
0000
0010
1000
,
0001
1000
0001
1000
0002
0000
0100
0000
0100
0000
0000
0000
0013
0000
0100
0001
,
1000
0001
1000
0001
1000
0000
1001
0000
1001
0000
0001
0100
0001
0000
1000
0100
,
0010
0001
0010
0100
2000
0000
0001
0000
0100
0000
0000
0000
3010
0000
0001
0010
,
0100
1000
0100
0010
0002
0000
0100
0000
1000
0000
0000
0000
0103
0000
0010
0001
,
1000
0100
0010
0001
2000
0000
0001
0000
0010
0000
0000
0000
3100
0010
0100
0010
,
1000
0100
1000
0100
0010
0001
0010
0001
0020
0000
0000
0000
0031
0000
0100
0010
,
0100
0001
1000
0010
0100
0010
1000
0001
0100
0000
0010
1000
0010
0000
0100
0001
,
0100
0000
0010
0100
0001
1000
0001
0100
0001
0100
0010
0000
1000
0000
0001
0010
,
0001
0010
0001
1000
0100
0000
1000
0010
0100
0000
0010
0100
0001
0000
1000
0000
,
0000
0001
0000
0010
0001
0010
0100
0000
1000
0000
0000
0000
0001
0100
0001
0010
,
0000
0000
0001
1000
0010
0100
0010
1000
0000
0010
0000
0100
0010
0100
0001
1000
,
0001
1000
0010
1000
0010
0100
0010
0000
1000
0000
0000
0000
0010
0100
0000
0010
,
0100
0000
0001
0100
0000
0100
0001
0000
0010
0001
0000
0100
0010
0000
1000
0010
,
0100
0010
0100
0000
M02M
0000
0M0M
M000
0M0M
M000
0130
0000
0001
0000
0010
0000
,
0100
1000
0100
1000
0001
1000
0001
0010
0000
0000
0001
0010
0100
0000
1000
0001
,
1000
0100
0000
0010
0001
0100
0000
0110
0000
0000
0100
0010
0000
1010
0000
0000
,
0001
0100
0000
0110
0000
0000
1000
0001
0000
0101
0000
0000
0010
0000
1000
0100
,
0010
0001
1000
0100
0010
0001
1000
0000
0001
0000
0000
0000
0100
0000
0001
0010
,
0100
000M
0100
0010
0001
0000
1000
0100
0010
M000
0010
0100
1000
0000
0001
0100
,
0010
000M
0010
0100
0001
0000
1000
0000
0010
0000
1000
0000
2100
0000
0000
0000
,
3201
0000
0000
0000
2310
0000
0000
0000
3012
0000
0000
0000
0113
0000
1000
0100
,
1000
0100
1000
0001
1000
0001
1000
0001
0100
0001
0100
0001
1000
0000
0010
0100
,
0001
0010
0100
1000
0100
0000
1000
0000
0101
0000
M0M0
0000
0100
0000
0001
0010
,
0001
0100
0010
0100
0010
0000
1000
0000
1001
0000
0MM0
0000
0001
0000
1000
0001
,
0100
0010
1000
0010
0100
0010
0100
0000
0110
0000
M00M
0000
0100
0000
0001
1000
,
0010
0100
0010
1000
0002
0000
0023
0000
0230
0000
2300
0000
3001
0000
0100
0010
,
0100
0001
0010
0100
0010
0000
0001
0000
0011
0000
MM00
0000
0010
0000
0001
0100
,
0010
1000
0001
0010
0100
0000
1000
0000
1100
0000
00MM
0000
0100
0000
0010
0001
,
0010
0001
0100
0010
1000
0000
0001
0000
0110
0000
0001
0000
1000
0001
1000
0000
,
0010
0100
0010
0000
0100
0010
0100
0000
0001
1000
0001
0000
0010
0000
0001
0100
,
0001
0100
0001
0100
0001
0000
0110
0000
1000
0010
1000
0010
0100
0000
0010
1000
,
0010
1000
0010
1000
0010
0000
0101
0000
0001
0100
0001
0100
0010
0000
1000
0100
,
0010
0001
0010
0100
1000
0000
1001
0000
0100
0010
0100
0010
1000
0000
0001
0010
,
0100
1000
0100
0010
0002
0000
2003
0000
3200
0000
0320
0000
0031
0000
1000
0010
,
0100
0001
0100
0010
0100
0000
0101
0000
1000
0100
0010
0001
0100
0000
0001
1000
,
0010
0100
0010
0100
0010
0000
1100
0000
0001
0010
0100
1000
0010
0000
1000
0001
,
0100
0010
1000
0001
0100
0000
0110
0000
1000
0000
0101
0000
0100
0001
0100
0000
,
0010
1000
0010
0000
1000
0100
1000
0000
0001
0010
0001
0000
0220
0000
0000
0000
,
0000
0330
0000
0000
;

//---------------dance-single - ----------------
#NOTES:
     dance-single:
     :
     Hard:
     9:
     0.660,0.627,0.094,0.019,0.263,480.000,10.000,2.000,2.000,0.000:
0000
0000
0000
0000
,
0000
M000
000M
0002
,
0000
0000
0000
0000
0000
0000
0000
0000
0103
0010
0200
0000
0301
0000
1000
0000
,
0010
1000
0100
1000
0100
0000
0010
0100
,
0010
0100
0010
0001
0010
0000
0001
0100
,
0001
0100
0010
1000
0001
0000
1000
0010
,
0100
0001
1000
0001
0100
0000
1010
1000
,
0001
0100
0010
0100
0001
0000
1000
0010
,
0100
0001
0100
0010
1000
0000
0100
0010
,
0001
1000
0001
0010
0100
0000
0010
0001
,
0010
0100
0410
0000
0000
0000
0310
0010
,
0001
0010
0100
0010
0100
1000
0000
0001
,
0100
0010
0100
0010
1000
0100
1000
0010
,
0100
0010
0100
0001
0010
0100
1000
0010
,
0100
0000
0001
0000
0100
0000
0010
0000
1000
0000
0001
0000
0100
0000
0010
1000
,
0000
0010
1000
0000
0010
0000
0100
0000
0001
0000
0100
0000
0000
0000
0010
0000
,
0000
0100
0000
0000
0010
0000
0000
1000
0000
0000
0100
0000
0001
0000
0100
0000
,
1000
0000
0100
0000
0010
0100
0010
0100
0000
0010
0001
0010
0001
0000
0010
0000
,
0100
1000
0100
0001
0100
1000
0100
0000
,
1000
0000
0001
0010
0100
0000
0010
0000
,
0100
0000
1000
0100
1000
0010
0000
0000
,
0000
0000
0000
1000
0001
0010
0100
0000
,
0010
0000
0001
0000
1000
0000
0100
1000
,
0010
0000
0100
0000
0001
0000
0100
0000
0010
1000
0000
0100
0000
0000
0010
0000
,
0001
0100
0010
0100
0001
1000
0010
0000
,
0100
0000
0010
0000
1000
0000
0010
0100
,
0001
0100
0010
0000
0100
0000
1010
0100
,
0010
0100
0001
0001
0001
0000
0010
0100
,
1000
0010
0100
0100
0100
0000
0001
0010
,
0100
1000
0010
0010
0010
0000
1000
0010
,
0100
0000
0010
0000
1000
0000
1000
0000
1000
0000
0100
0000
0010
0000
0001
0010
,
0100
0000
0010
0000
0100
0000
1000
0000
0010
0000
0000
0000
0100
0000
0010
1000
,
0010
0000
0100
0000
0001
0000
0100
0000
0010
0000
0000
0000
1000
0000
0100
0010
,
0100
1000
0001
0010
0100
0000
1000
0001
,
1000
0010
0100
0010
0100
0000
0010
1000
,
0001
0100
0010
0100
0001
0000
1000
0100
,
0010
0100
0001
0100
1000
0001
0010
0000
,
0100
0000
1000
0001
0010
0100
0010
0001
,
0000
1000
0000
0100
1000
0000
0001
0000
0010
0000
0000
0000
0100
0000
1000
0010
,
0000
0000
0100
0000
0001
0000
0100
0010
0000
0100
0000
0010
1000
0010
1000
0000
,
0001
0000
0010
0000
0100
1000
0010
0000
0100
0000
0000
0000
0001
1000
0000
1000
,
0001
0000
1000
0000
0010
0000
0100
0000
0001
0000
0100
0000
0010
0000
1000
0100
,
1000
0100
1000
0000
0100
0000
0000
0000
0000
0000
0010
0000
0001
0000
0100
0000
,
0010
0000
1000
0000
0100
0010
0000
0100
0000
0000
1000
0000
0001
0000
0100
0000
,
0010
0000
0100
0000
0010
0100
0000
0001
0000
0000
1000
0100
0000
0010
0000
0000
,
0001
0010
0000
0100
0000
0000
0010
0001
0000
1000
0000
0000
0001
0000
0100
0001
,
0100
0001
0100
0000
0010
0000
1000
0000
0100
0000
0000
0000
0010
0000
0001
0010
,
0001
0000
0100
0010
0100
0000
0010
0000
1000
0000
0100
0000
0010
0000
0001
1000
,
0001
0000
1000
0100
1000
0000
0010
0000
1000
0000
0001
0000
0100
0000
0000
0000
,
0010
0100
1010
0000
1000
0100
0101
0010
,
1000
0001
0100
0010
0100
0000
0001
1000
,
0010
0100
0010
0100
0001
0000
1000
0010
,
0100
0001
0100
0010
0100
0000
0010
1000
,
0001
0100
0010
0100
0010
0000
1000
0001
,
0100
0010
1000
0001
0100
0010
1000
0010
,
0100
0001
1000
0100
0010
0000
0001
1000
,
0010
0100
0010
1000
0100
0000
0010
0001
,
1000
0001
1000
0010
0100
0001
1000
0000
,
0010
0000
0000
0000
0100
0000
0000
0000
0001
0000
0000
0000
1000
0000
0001
0100
,
0001
0010
0001
0000
0100
0000
0001
0000
0010
0000
0000
0000
0100
0000
1000
0010
,
1000
0000
0100
0010
0001
0000
1000
0000
0010
0000
0000
0000
0100
0000
0010
1000
,
0010
0000
1000
0010
0100
0000
0001
0000
0100
0000
0000
0000
0010
0000
1000
0001
,
1000
0001
1000
0000
0100
0000
0010
0000
0100
0000
1000
0000
0001
0000
0100
0001
,
0010
0100
0010
0000
0001
0000
0100
0000
0010
0000
0000
0000
1000
0000
0010
0100
,
0010
0000
1000
0100
0010
0000
0001
0000
0100
0000
0000
0000
0010
0000
0100
0010
,
0100
0010
1000
0000
0001
0000
0010
0000
0100
0000
0010
0000
0011
0000
0000
0000
,
1100
0011
0110
1001
;

//---------------dance-single - ----------------
#NOTES:
     dance-single:
     :
     Medium:
     7:
     0.547,0.533,0.319,0.066,0.056,367.000,34.000,7.000,0.000,0.000:
0000
0000
0000
0000
,
0000
0100
0010
0220
,
0000
0000
0000
0000
0330
0000
1000
0100
,
0010
0000
0000
0001
0011
0000
0010
0001
,
0100
0000
0000
0010
0110
0000
0010
1000
,
0001
0000
0000
1000
1100
0000
0010
0100
,
0001
1000
0010
0100
0001
0000
1000
0100
,
0000
1100
0000
0010
1000
0000
0001
0100
,
0000
0101
0000
0001
0010
0000
0001
0100
,
0000
0110
0000
0010
1000
0000
0010
0100
,
0010
1000
0001
1000
0010
0000
0100
0010
,
1000
0010
0100
0010
0100
0010
0000
0100
,
0001
0100
0010
0100
0001
0000
0010
0000
,
0100
0010
0000
0001
0100
0000
0010
1000
,
0010
0100
0000
0001
0010
0000
0110
0000
,
0010
0100
0000
1000
0010
0000
0100
0010
,
1000
0010
0000
0100
0001
0000
0100
0000
,
0001
1000
0010
0100
0010
0000
1000
0001
,
0100
0010
0100
0001
1000
0000
1010
1000
,
0100
0010
0100
0010
0001
0000
0010
0000
,
0100
0000
1000
0010
0100
0001
0000
0000
,
0000
0000
0000
0100
0001
0000
1000
0000
,
0010
0000
0100
0000
0001
0000
1000
0100
,
0010
0100
1000
0010
0100
0000
0001
0010
,
0100
0010
0100
1000
0100
0000
0010
0000
,
1100
0001
0110
0100
,
1010
0000
1000
0000
0101
0000
1000
0001
,
1000
0001
1000
0001
0100
0000
0010
0100
,
0010
0100
0010
0100
0001
0000
1000
0100
,
1000
0100
1000
0100
0010
0000
0001
0010
,
0001
0010
0001
0010
0100
0000
1000
0010
,
1000
0010
1000
0010
0100
0000
0001
0100
,
0001
0100
0001
0100
0010
0000
1000
0100
,
0010
0001
0010
0100
1000
0000
2002
0000
,
0000
0000
3003
0110
,
1010
0000
0000
0100
0001
0000
1001
0000
,
0011
0000
0000
0001
1000
0000
0101
0000
,
1010
0000
0100
0000
0010
0000
1000
0010
,
1000
0000
0100
0000
0010
0000
0000
0000
0100
0000
0010
0001
0010
0000
0000
0000
,
0100
0000
1000
0010
0100
0000
0010
0000
,
1000
0010
0000
0100
0010
0000
1000
0000
,
0001
0100
0000
0010
1000
0000
0100
0010
,
0100
1000
0000
1001
,
1000
0000
0000
0000
0001
0000
0000
0100
0000
0000
0000
0000
0010
0000
0000
0000
,
1000
0000
0000
0000
0010
0000
0000
0100
0000
0000
0001
0000
0000
1000
0000
0000
,
0001
0000
0000
0100
0000
0000
0010
0000
0000
1000
0000
0000
0001
0000
0000
0000
,
1000
0000
0010
1000
0100
0000
1000
0100
,
0010
0001
0020
0000
0032
0000
0103
0010
,
1000
0000
0010
0100
0001
0010
0001
0000
,
1000
0100
0000
1000
0010
0000
0400
0000
,
0001
0000
0301
0010
0001
0000
1000
0100
,
0010
0100
0000
0010
0001
0000
0100
0010
,
0100
0010
0000
1000
0010
0000
0100
0001
,
0100
0001
0200
0000
0301
0000
1000
0001
,
1000
0001
1000
0100
0010
0000
0011
0000
,
1000
0000
0001
0100
0010
0000
1000
0010
,
0100
0010
0000
1000
0001
0000
0010
0100
,
1000
0000
0000
0000
0010
0000
1000
0000
0100
0000
0000
0000
0010
0001
0000
0000
,
0011
0000
0000
0000
0010
0100
0000
0000
0110
0000
0000
0000
1000
0000
0001
0000
,
0101
0000
0010
1000
0110
0000
1000
0010
,
1000
0100
0010
0001
0100
0000
0010
0100
,
0001
1000
0100
0000
0110
0000
0001
1000
,
0100
0010
0101
0000
0100
0100
1100
0000
,
0101
0000
0010
1000
0010
0000
1100
0000
,
0110
0000
0010
0010
1000
0000
0100
0010
,
0001
0000
0010
0000
0100
0000
1000
0000
0010
0000
0000
0000
1000
0001
0000
0000
,
1000
0010
0000
0000
1000
0001
0000
0000
1000
0100
0000
0000
1001
0000
0000
0000
;

//---------------dance-single - ----------------
#NOTES:
     dance-single:
     :
     Easy:
     4:
     0.260,0.313,0.019,0.066,0.000,185.000,2.000,7.000,0.000,0.000:
0000
0000
0000
0000
,
0000
0000
0000
0000
,
0000
0000
0000
1000
,
0001
0000
0000
0100
0001
0000
1000
0000
,
0010
0000
0000
0100
0010
0000
0100
0000
,
0001
0000
0000
1000
0100
0000
0010
0000
,
0100
0000
1000
0010
1000
0000
0001
0000
,
0100
0000
0000
0010
1000
0000
0100
0000
,
0010
0000
0000
0001
1000
0000
0010
0000
,
0100
0000
0000
0010
1000
0000
0001
0000
,
0100
0000
0001
1000
0001
0000
1000
0000
,
0000
0000
0010
0000
0000
0000
0000
0100
,
0000
0001
1000
0010
,
0000
0100
0000
0001
,
0000
1000
0000
0001
,
0000
0000
0100
0000
0010
0000
0000
1000
,
0000
0001
0100
0010
,
0000
1000
0000
0010
,
0000
0100
0000
0001
,
0000
0010
0000
0001
,
0000
0010
0000
0000
,
0000
0000
0000
0100
1000
0000
0010
0000
,
0000
0100
0000
0001
,
0000
1000
0000
0100
,
0000
0010
0000
0001
,
0000
1000
0000
0020
,
0000
0100
0130
0001
,
1000
0000
0100
0010
,
0001
0000
0010
0100
,
1000
0000
0010
0100
,
0010
1000
0010
0100
,
0001
0000
0010
0100
,
0010
0000
0001
1000
,
0010
0000
0100
0002
,
0023
0230
2300
3010
,
0000
1000
0000
0001
,
0000
0100
0000
0010
,
0000
1000
0000
0001
,
0000
0010
0100
1000
,
0000
0010
0000
1000
,
0000
0100
0000
0010
,
0000
0001
0000
1000
,
0000
0000
0110
0000
0000
1000
0001
0000
,
0000
0100
0000
0001
,
0000
0000
1000
0000
0000
0010
0000
0000
,
0100
0000
0000
0001
0000
0000
1000
0000
,
0000
0010
0100
0001
,
0000
1000
0000
0010
,
0000
0100
0000
0010
,
0000
1000
0000
0001
,
0100
0001
0100
0001
,
1000
0100
0010
0001
,
0000
1000
0001
1000
,
0010
0100
0010
1000
,
0000
0000
0002
0000
0200
0003
0301
0000
,
0010
0100
0010
0100
,
0000
1000
0001
0100
,
0010
1000
0100
0010
,
0000
0011
0000
0001
,
0000
1000
0010
0100
,
0000
0001
1000
0010
,
0000
0100
0001
1000
,
0000
0001
1000
0001
,
0000
0100
0010
0100
,
0000
0001
1000
0010
,
0000
0100
0001
1000
,
0000
0010
0000
0100
;

//---------------dance-single - ----------------
#NOTES:
     dance-single:
     :
     Beginner:
     1:
     0.086,0.063,0.000,0.009,0.000,63.000,0.000,1.000,0.000,0.000:

0000
0000
0000
0000
,
0000
0000
0000
0000
,
0000
0000
0000
1000
,
0000
0000
0000
0010
,
0000
0000
0000
0100
,
0000
0000
0000
0010
,
0000
0000
0000
1000
,
0000
0000
0000
0001
,
0000
0000
0000
1000
,
0000
0000
0000
0010
,
0000
0000
0000
0100
,
0000
0000
0000
0001
,
0000
0000
0000
1000
,
0000
0000
0000
0001
,
0000
0000
0000
0100
,
0000
0000
0000
0010
,
0000
0000
0000
1000
,
0000
0000
0000
0010
,
0000
0000
0000
0100
,
0000
0000
0000
0010
,
0000
0000
0000
0000
,
0000
0000
0000
1000
,
0000
0000
0000
0001
,
0000
0000
0000
0100
,
0000
0000
0000
0010
,
0000
0000
0000
1000
,
0000
0000
0000
0001
,
0000
0000
0000
1000
,
0000
0000
0000
0010
,
0000
0000
0000
0100
,
0000
0000
0000
0010
,
0000
0000
0000
0100
,
0000
0000
0000
0001
,
0000
0000
0000
2000
,
0000
0000
0000
3001
,
0000
0000
0000
0100
,
0000
0000
0000
0001
,
0000
0000
0000
1000
,
0000
0000
0000
0010
,
0000
0000
0000
0100
,
0000
0000
0000
0001
,
0000
0000
0000
1000
,
0000
0000
0000
0001
,
0000
0000
0000
0100
,
0000
0000
0000
0000
,
0000
0000
0000
0010
,
0000
0000
0000
1000
,
0000
0000
0000
0001
,
0000
0000
0000
1000
,
0000
0000
0000
0010
,
0000
0000
0000
1000
,
0000
0000
0000
0001
,
0000
0000
0000
0100
,
0000
0000
0000
0001
,
0000
0000
0000
0010
,
0000
0000
0000
0100
,
0000
0000
0000
1000
,
0000
0000
0000
0001
,
0000
0000
0000
1000
,
0000
0000
0000
0001
,
0000
0000
0000
0100
,
0000
0000
0000
0001
,
0000
0000
0000
0100
,
0000
0000
0000
0010
,
0000
0000
0000
1000
,
0000
0000
0000
0001
,
0000
0000
0000
1000
;
